Категории
Добро пожаловать на музыкальный торрент трекер без регистрации - Sound-Park  ι  Стать пользователем  ι  Войти  ι  Напомнить пароль?

Landgren · Wollny · Danielsson · Haffner - 4 Wheel Drive (Lossless, Hi Res 2019)

Jazz
 
Дата: 17 марта 2019
Добавил: StasOn11
Просмотров: 534
  • ИСПОЛНИТЕЛЬ: Landgren · Wollny · Danielsson · Haffner
  • АЛЬБОМ / НАЗВАНИЕ: 4 Wheel Drive
  • ГОД / ДАТА ВЫХОДА: 2019
  • ТОЧНЫЙ ЖАНР(Ы): Jazz, Contemporary Jazz
  • ЛЕЙБЛ: ACT
  • ПРОДОЛЖИТЕЛЬНОСТЬ: 00:50:42
  • ФОРМАТ: FLAC, (tracks) 24 bits, 96 KHz
  • КАЧЕСТВО: Lossless

  • РЕЙТИНГ: 10 / 2    
  • ГОЛОСОВАТЬ:

  • СКАЧАТЬ: ПРЯМАЯ ССЫЛКА НА ТОРРЕНТ

Описание альбома



01. Polygon (03:42)
02. Another Day in Paradise (04:34)
03. Lady Madonna (04:14)
04. Shadows in the Rain (03:54)
05. Lobito (03:35)
06. Maybe I'm Amazed (03:47)
07. She's Always a Woman (05:42)
08. Le chat sur toit (05:28)
09. Just the Way You Are (04:01)
10. If You Love Somebody Set Them Free (03:54)
11. That's All (04:25)
12. 4Wd (03:26)

Highresaudio

Источник (релизер): Stephenten

It scarcely feels necessary to mention the pre-eminent status of all four of these artists, because that is evident from hearing the music. When Nils Landgren brings such feeling to his own melody “Le chat sur le toit”, or when Michael Wollny dazzles with the blues-infused piano solo in “Lady Madonna”; when “Polygon” opens with a bass intro from Lars Danielsson, or when Wolfgang Haffner sets up the power groove to propel “4WD”, then it’s clear what’s happening: four leading figures in European jazz who know each other well and who have appreciated each other’s work for many years have now got together. True, their paths have crossed many times before, and in all kinds of configurations. The formidable duo of Landgren and Wollny comes to mind, for example, as does Haffner’s long-term role as an anchor in the Funk Unit, or Danielsson's vivid bass presence in Haffner's trio…but here for the very first time are the four friends as a quartet. They decided to record an album together at the Nilento Studio in Gothenburg: “4 Wheel Drive”.

The title of the album reflects the equal role which each of the four musicians has had in setting the direction for the quartet. They take to the road together, both as superb soloists and as team players. In addition to one original composition from each of them, Landgren, Wollny, Danielsson and Haffner also decided that they would focus on four living creative forces from the recent history of music and interpret their tunes, Paul McCartney, Billy Joel, Phil Collins and Sting.

"These tunes are timeless classics in their own right, but there was another idea behind the choices of the songs we’ve covered. They have strong associations with the instruments in our quartet," explains Wollny. So McCartney stands for bass, and for vocals. Singer Billy Joel is also a talented pianist, and Phil Collins first started off his career as the drummer in Genesis. The choices were also dictated by highly personal connections. Danielsson considers the Beatles musician as his favourite bass-player; McCartney is up there with Johann Sebastian Bach as the musician he reveres the most. Sting is an inescapable presence in Nils Landgren's repertoire, especially the trombonist’s interpretations of "Fragile". And finally Haffner, just like Phil Collins, feels completely at home as a drummer in both pop and jazz.

The 4 Wheel Drive musicians have also used the classic songs they have chosen as starting-points for their own excursions; so McCartney’s “Maybe I’m Amazed” becomes a subtly-lit jazz ballad. Freed from everything extraneous, and transformed by Wollny’s prepared piano, Billy Joel’s “She’s Always A Woman” is a mysterious and enraptured love song. The musicians interpret Genesis’ song “That’s All” as a collage of instrumental sound. And for Sting’s song about letting go, “If You Love Somebody Set Them Free”, they find a fitting musical parallel: the freedom of jazz leads naturally to Landgren’s powerful trombone improvisation. The album is bookended with music from the fast lane: it opens with Wollny’s fast-paced showpiece “Polygon”, and closes with Danielsson’s “4WD”; he had Nirvana’s “Smells Like Teen Spirit” in mind when he wrote this title track.

4 Wheel Drive as an ensemble is like a high-performance four-cylinder engine with all the gears meshing perfectly. And the fuel: jazz.

Nils Landgren, trombone, vocals
Michael Wollny, piano
Lars Danielsson, bass, cello
Wolfgang Haffner, drums


foobar2000 1.4 / Dynamic Range Meter 1.1.1
log date: 2019-03-15 06:18:00

--------------------------------------------------------------------------------
Analyzed: Nils Landgren, Michael Wollny, Lars Danielsson & Wolfgang Haffner / 4 Wheel Drive
--------------------------------------------------------------------------------

DR Peak RMS Duration Track
--------------------------------------------------------------------------------
DR7 -1.00 dB -10.38 dB 3:42 01-Polygon
DR10 -1.00 dB -14.14 dB 4:34 02-Another Day in Paradise
DR8 -1.00 dB -10.64 dB 4:14 03-Lady Madonna
DR11 -1.04 dB -15.05 dB 3:54 04-Shadows in the Rain
DR8 -1.00 dB -11.94 dB 3:35 05-Lobito
DR10 -1.00 dB -13.63 dB 3:47 06-Maybe I'm Amazed
DR10 -1.00 dB -14.51 dB 5:42 07-She's Always a Woman
DR8 -1.00 dB -13.41 dB 5:28 08-Le chat sur toit
DR9 -1.00 dB -13.15 dB 4:01 09-Just the Way You Are
DR7 -1.00 dB -9.20 dB 3:54 10-If You Love Somebody Set Them Free
DR10 -1.00 dB -15.09 dB 4:25 11-That's All
DR7 -1.00 dB -9.07 dB 3:26 12-4Wd
--------------------------------------------------------------------------------

Number of tracks: 12
Official DR value: DR9
Samplerate: 96000 Hz
Channels: 2
Bits per sample: 24
Bitrate: 2812 kbps
Codec: FLAC
================================================================================



Комментарии (2)


19 марта 2019
aleox16   
0 
PR:XCityXXX GBXXX GBПостовХС
В
Л
Х

gracias


17 марта 2019
Bagdee   
0 
PR:XCityXXX GBXXX GBПостовХС
В
Л
Х

Thank you



 

Please enable Javascript!
Пожалуйста включите Javascript, иначе данный и другие сайты могут работать не корректно! Узнать как включить Javascript можно на Google Support