Категории
Добро пожаловать на музыкальный торрент трекер без регистрации - Sound-Park  ι  Стать пользователем  ι  Войти  ι  Напомнить пароль?

Vijay Iyer & Craig Taborn - The Transitory Poems (Lossless, Hi Res 2019)

Jazz  Avant-garde jazz  Contemporary / Modern
 
Дата: 17 марта 2019
Добавил: StasOn11
Просмотров: 498
  • ИСПОЛНИТЕЛЬ: Vijay Iyer & Craig Taborn
  • АЛЬБОМ / НАЗВАНИЕ: The Transitory Poems
  • ГОД / ДАТА ВЫХОДА: 2019
  • СТРАНА: United States
  • ТОЧНЫЙ ЖАНР(Ы): Contemporary, Avant Jazz, New Music, Modern Creative
  • ЛЕЙБЛ: ECM Records
  • ПРОДОЛЖИТЕЛЬНОСТЬ: 01:14:12
  • ФОРМАТ: FLAC, (tracks) 24 bits, 96 KHz
  • КАЧЕСТВО: Lossless
  • Оф сайт: vijay-iyer.com

  • РЕЙТИНГ: 10 / 2    
  • ГОЛОСОВАТЬ:

  • СКАЧАТЬ: ПРЯМАЯ ССЫЛКА НА ТОРРЕНТ

Описание альбома



01. Life Line (seven tensions) (13:06)
02. Sensorium (04:19)
03. Kairos (08:59)
04. S.H.A.R.D.S. (09:12)
05. Shake Down (06:40)
06. Clear Monolith (10:51)
07. Luminous Brew (08:17)
08. Meshwork/Libation (When Kabuya Dances) (12:48)

Prestomusic

Источник (релизер): Stephenten

Pianists Vijay Iyer and Craig Taborn, two of creative music’s most resourceful players and two of its most distinctive improvisers, learned to meld and mesh their artistic approaches inside Roscoe Mitchell’s Note
Factory ensemble in 2002.
Since then, Iyer and Taborn have continued to play concerts together. The Transitory Poems, recorded live at the Franz Liszt Academy, Budapest, in March 2018, is their first duo album. A marvel of shared invention, it incorporates pieces offered as tributes to formative influences including pianists Cecil Taylor, Muhal Richard Abrams and Geri Allen, and the painter and sculptor Jack Whitten.
Iyer and Taborn’s first shared ECM credit was the 2007 Roscoe Mitchell album Far Side (recently reprised in the box set The Art Ensemble of Chicago and Associated Ensembles) but each has a considerable body of acclaimed recordings made for the label over the past decade.

Vijay Iyer, piano
Craig Taborn, piano


foobar2000 1.4 / Dynamic Range Meter 1.1.1
log date: 2019-03-15 06:21:10

--------------------------------------------------------------------------------
Analyzed: Vijay Iyer / The Transitory Poems
--------------------------------------------------------------------------------

DR Peak RMS Duration Track
--------------------------------------------------------------------------------
DR16 -3.87 dB -25.07 dB 13:07 01-Life Line (Seven Tensions)
DR13 -9.85 dB -27.32 dB 4:19 02-Sensorium
DR14 -1.58 dB -22.14 dB 8:59 03-Kairòs
DR14 -4.87 dB -24.88 dB 9:13 04-S.H.A.R.D.S.
DR14 -4.12 dB -22.11 dB 6:41 05-Shake Down
DR15 -2.08 dB -22.89 dB 10:51 06-Clear Monolith
DR12 -3.92 dB -22.31 dB 8:17 07-Luminous Brew
DR14 -3.20 dB -22.83 dB 12:49 08-Meshwork / Libation / When Kabuya Dances
--------------------------------------------------------------------------------

Number of tracks: 8
Official DR value: DR14
Samplerate: 96000 Hz
Channels: 2
Bits per sample: 24
Bitrate: 2051 kbps
Codec: FLAC
================================================================================



Комментарии (2)


19 марта 2019
aleox16   
0 
PR:XCityXXX GBXXX GBПостовХС
В
Л
Х

gracias


17 марта 2019
Bagdee   
0 
PR:XCityXXX GBXXX GBПостовХС
В
Л
Х

Thank you



 

Please enable Javascript!
Пожалуйста включите Javascript, иначе данный и другие сайты могут работать не корректно! Узнать как включить Javascript можно на Google Support