Категории
Добро пожаловать на музыкальный торрент трекер без регистрации - Sound-Park  ι  Стать пользователем  ι  Войти  ι  Напомнить пароль?

Lage Lund - Terrible Animals (Lossless, Hi Res 2019)

Jazz
 
Дата: 17 марта 2019
Добавил: StasOn11
Просмотров: 468
  • ИСПОЛНИТЕЛЬ: Lage Lund
  • АЛЬБОМ / НАЗВАНИЕ: Terrible Animals
  • ГОД / ДАТА ВЫХОДА: 2019
  • СТРАНА: Norway
  • ТОЧНЫЙ ЖАНР(Ы): Jazz, Modern Jazz
  • ЛЕЙБЛ: Criss Cross
  • ПРОДОЛЖИТЕЛЬНОСТЬ: 01:07:40
  • ФОРМАТ: FLAC, (tracks) 24 bits, 96 KHz
  • КАЧЕСТВО: Lossless

  • РЕЙТИНГ: 10 / 2    
  • ГОЛОСОВАТЬ:

  • СКАЧАТЬ: ПРЯМАЯ ССЫЛКА НА ТОРРЕНТ

Описание альбома



01. Hard Eights (07:06)
02. Aquanaut (07:35)
03. Suppressions (09:25)
04. Haitian Ballad (07:33)
05. Ray Ray (10:01)
06. Octoberry (05:16)
07. Brasilia (04:52)
08. Take It Eas (07:08)
09. Terrible Animals (02:39)
10. We Are There Yet (06:05)

Highresaudio

Источник (релизер): Stephenten

Terrible Animals is perhaps the most compositionally ambitious and daringly performed of Lage Lund's five albums on Criss Cross.

Joined by a never-before-convened, top-of-the-pyramid rhythm section (Sullivan Fortner, piano; Larry Grenadier, bass; Tyshawn Sorey, drums) the 39-year-old presents ten far-flung originals that elicit the full measure of their creativity over the 68-minute program, spurring Lund -- who makes ingenious use of effects within his flow -- to some of his most dynamic and varied playing on record.

"Lund is building a memorable discography, with the release of Terrible Animals he has added a creatively and harmonically rich listen. A must add to any modern collection." (Elberton Cisnero, 5fingerreview.com)

Lage Lund, guitar, effects
Sullivan Fortner, piano
Larry Grenadier, bass
Tyshawn Sorey, drums


foobar2000 1.4 / Dynamic Range Meter 1.1.1
log date: 2019-03-14 08:49:19

--------------------------------------------------------------------------------
Analyzed: Lage Lund / Terrible Animals
--------------------------------------------------------------------------------

DR Peak RMS Duration Track
--------------------------------------------------------------------------------
DR8 -0.50 dB -11.23 dB 7:07 01-Hard Eights
DR8 -0.50 dB -10.61 dB 7:35 02-Aquanaut
DR9 -0.50 dB -11.65 dB 9:25 03-Suppressions
DR11 -0.50 dB -16.11 dB 7:33 04-Haitian Ballad
DR10 -0.50 dB -13.50 dB 10:02 05-Ray Ray
DR9 -0.50 dB -13.70 dB 5:16 06-Octoberry
DR11 -0.50 dB -13.04 dB 4:52 07-Brasilia
DR10 -0.50 dB -13.36 dB 7:08 08-Take It Eas
DR9 -0.50 dB -12.18 dB 2:40 09-Terrible Animals
DR10 -0.50 dB -12.92 dB 6:06 10-We Are There Yet
--------------------------------------------------------------------------------

Number of tracks: 10
Official DR value: DR9
Samplerate: 96000 Hz
Channels: 2
Bits per sample: 24
Bitrate: 3007 kbps
Codec: FLAC
================================================================================



Комментарии (1)


17 марта 2019
Bagdee   
0 
PR:XCityXXX GBXXX GBПостовХС
В
Л
Х

Thank you



 

Please enable Javascript!
Пожалуйста включите Javascript, иначе данный и другие сайты могут работать не корректно! Узнать как включить Javascript можно на Google Support