Категории
Добро пожаловать на музыкальный торрент трекер без регистрации - Sound-Park  ι  Стать пользователем  ι  Войти  ι  Напомнить пароль?

Matt Brewer - Ganymede (Lossless, Hi Res 2019)

Jazz
 
Дата: 17 марта 2019
Добавил: StasOn11
Просмотров: 498
  • ИСПОЛНИТЕЛЬ: Matt Brewer
  • АЛЬБОМ / НАЗВАНИЕ: Ganymede
  • ГОД / ДАТА ВЫХОДА: 2019
  • СТРАНА: United States
  • ТОЧНЫЙ ЖАНР(Ы): Jazz, Contemporary Jazz
  • ЛЕЙБЛ: Criss Cross
  • ПРОДОЛЖИТЕЛЬНОСТЬ: 00:59:19
  • ФОРМАТ: FLAC, (tracks) 24 bits, 96 KHz
  • КАЧЕСТВО: Lossless

  • РЕЙТИНГ: 10 / 2    
  • ГОЛОСОВАТЬ:

  • СКАЧАТЬ: ПРЯМАЯ ССЫЛКА НА ТОРРЕНТ
  • СИДЫ:

Описание альбома



01. Ganymede (06:30)
02. Don't Wake the Violent Baby (05:19)
03. Rj (04:24)
04. Triton (04:26)
05. Afro Centric (07:19)
06. Io (06:09)
07. Eos (03:00)
08. Psalm (07:17)
09. Willisee (08:50)
10. When Sunny Gets Blue (06:05)

Highresaudio

Источник (релизер): Stephenten

Matt Brewer's third Criss Cross leader album, Ganymede, follows a pair of inspired ensemble recordings (Mythology. Criss 1373; Unspoken, Criss 1390), for which the master bassist convened some of the most accomplished individualists of 21st century jazz to interpret original music that showcased Brewer's sophisticated compositional skills, lyric gifts, and state of the art chops.

Here, Brewer pares down to the trio format, allowing tenor saxophone hero Mark Shim, drum virtuoso Damion Reid and himself ample room to stretch out on challenging "inside" repertoire by Ron Carter ("R.J.") and Joe Henderson ("Afro-Centric"), "outside" songs by Ornette Coleman ("Eos"), and Dewey Redman ("Willisee"), a complementary piece by Shim, and four of his own well-wrought originals.

Matt Brewer, bass
Mark Shim, tenor saxophone
Damion Reid, drums



foobar2000 1.4 / Dynamic Range Meter 1.1.1
log date: 2019-03-14 08:38:52

--------------------------------------------------------------------------------
Analyzed: Matt Brewer / Ganymede
--------------------------------------------------------------------------------

DR Peak RMS Duration Track
--------------------------------------------------------------------------------
DR10 -0.50 dB -14.02 dB 6:30 01-Ganymede
DR10 -0.50 dB -13.37 dB 5:20 02-Don't Wake the Violent Baby
DR9 -0.50 dB -11.25 dB 4:25 03-Rj
DR10 -0.50 dB -12.03 dB 4:26 04-Triton
DR11 -0.50 dB -12.98 dB 7:20 05-Afro Centric
DR11 -0.50 dB -14.36 dB 6:10 06-Io
DR12 -0.50 dB -14.76 dB 3:00 07-Eos
DR12 -0.50 dB -14.98 dB 7:17 08-Psalm
DR11 -0.50 dB -13.85 dB 8:50 09-Willisee
DR13 -0.50 dB -15.71 dB 6:06 10-When Sunny Gets Blue
--------------------------------------------------------------------------------

Number of tracks: 10
Official DR value: DR11
Samplerate: 96000 Hz
Channels: 2
Bits per sample: 24
Bitrate: 2750 kbps
Codec: FLAC
================================================================================



Комментарии (2)


17 апреля 2019
rotihellas   
0 
PR:XCityXXX GBXXX GBПостовХС
В
Л
Х

Thanks!


17 марта 2019
Bagdee   
0 
PR:XCityXXX GBXXX GBПостовХС
В
Л
Х

Thank you



 

Похожие альбомы

Matt Brewer - Mythology (2014)

1 февраля 2015
Jazz
Please enable Javascript!
Пожалуйста включите Javascript, иначе данный и другие сайты могут работать не корректно! Узнать как включить Javascript можно на Google Support